Year Of Release: 2013
Genre: Pop Rock
Format: FLAC tracks+.cue
Bitrate: lossless
Total Size: 450.49 MB

Tracklist

CD1:
01. The Last Ship (03:50)
02. Dead Man’s Boots (03:29)
03. And Yet (03:52)
04. August Winds (03:17)
05. Language Of Birds (03:30)
06. Practical Arrangement (03:19)
07. The Night The Pugilist Learned How To Dance (04:13)
08. Ballad Of The Great Eastern (05:14)
09. What Have We Got? [feat. Jimmy Nail] (03:34)
10. I Love Her But She Loves Someone Else (03:41)
11. So To Speak [feat. Becky Unthank] (04:07)
12. The Last Ship (Reprise) (03:19)

CD2:
01. Shipyard [feat. Jimmy Nail, Brian Johnson, Jo Lawry] (06:00)
02. It’s Not The Same Moon (02:54)
03. Hadaway (03:18)
04. Jock The Singing Welder (02:49)
05. Sky Hooks And Tartan Paint [feat. Brian Johnson] (03:35)
06. Peggy’s Song [feat. Rachel Unthank And The Winterset] (02:38)
07. Show Some Respect (04:51)
08. Practical Arrangement (Full Original Duet) [feat. Jo Lawry] (04:35)

Log

Spoiler:
Exact Audio Copy V1.0 beta 2 from 29. April 2011

EAC extraction logfile from 2. October 2013, 11:26

Sting / The Last Ship (Super Deluxe Edition) Disc 1

Used drive : HL-DT-STDVDRAM GH15F Adapter: 1 ID: 0

Read mode : Secure
Utilize accurate stream : Yes
Defeat audio cache : Yes
Make use of C2 pointers : No

Read offset correction : 667
Overread into Lead-In and Lead-Out : No
Fill up missing offset samples with silence : Yes
Delete leading and trailing silent blocks : No
Null samples used in CRC calculations : Yes
Used interface : Native Win32 interface for Win NT & 2000
Gap handling : Appended to previous track

Used output format : User Defined Encoder
Selected bitrate : 128 kBit/s
Quality : High
Add ID3 tag : No
Command line compressor : C:\Program Files\Exact Audio Copy\Flac\flac.exe
Additional command line options : -8 -V -T “ARTIST=%artist%” -T “TITLE=%title%” -T “ALBUM=%albumtitle%” -T “DATE=%year%” -T “TRACKNUMBER=%tracknr%” -T “GENRE=%genre%” -T “PERFORMER=%albuminterpret%” -T “COMPOSER=%composer%” %haslyrics%–tag-from-file=LYRICS

TOC of the extracted CD

Track | Start | Length | Start sector | End sector
———————————————————
1 | 0:00.00 | 3:50.29 | 0 | 17278
2 | 3:50.29 | 3:29.48 | 17279 | 33001
3 | 7:20.02 | 3:52.45 | 33002 | 50446
4 | 11:12.47 | 3:17.46 | 50447 | 65267
5 | 14:30.18 | 3:30.07 | 65268 | 81024
6 | 18:00.25 | 3:19.45 | 81025 | 95994
7 | 21:19.70 | 4:13.03 | 95995 | 114972
8 | 25:32.73 | 5:14.35 | 114973 | 138557
9 | 30:47.33 | 3:34.32 | 138558 | 154639
10 | 34:21.65 | 3:41.71 | 154640 | 171285
11 | 38:03.61 | 4:06.72 | 171286 | 189807
12 | 42:10.58 | 3:19.43 | 189808 | 204775

Track 1

Filename J:\Sting – The Last Ship\Disc 1\01 The Last Ship .wav

Pre-gap length 0:00:02.00

Peak level 99.4 %
Extraction speed 3.5 X
Track quality 99.9 %
Test CRC 50C33BE0
Copy CRC 50C33BE0
Accurately ripped (confidence 14) [F804149C] (AR v2)
Copy OK

Track 2

Filename J:\Sting – The Last Ship\Disc 1\02 Dead Man’s Boots .wav

Peak level 99.4 %
Extraction speed 4.7 X
Track quality 100.0 %
Test CRC 7292A9F3
Copy CRC 7292A9F3
Accurately ripped (confidence 14) [62E2E58F] (AR v2)
Copy OK

Track 3

Filename J:\Sting – The Last Ship\Disc 1\03 And Yet .wav

Peak level 96.1 %
Extraction speed 5.0 X
Track quality 100.0 %
Test CRC 1D6732DE
Copy CRC 1D6732DE
Accurately ripped (confidence 14) [79244ECC] (AR v2)
Copy OK

Track 4

Filename J:\Sting – The Last Ship\Disc 1\04 August Winds .wav

Peak level 88.1 %
Extraction speed 5.3 X
Track quality 100.0 %
Test CRC EBEC7CC0
Copy CRC EBEC7CC0
Accurately ripped (confidence 13) [F4E92ED5] (AR v2)
Copy OK

Track 5

Filename J:\Sting – The Last Ship\Disc 1\05 Language of Birds .wav

Peak level 99.4 %
Extraction speed 5.4 X
Track quality 100.0 %
Test CRC F6CAD0A1
Copy CRC F6CAD0A1
Accurately ripped (confidence 13) [24353506] (AR v2)
Copy OK

Track 6

Filename J:\Sting – The Last Ship\Disc 1\06 Practical Arrangement .wav

Peak level 99.4 %
Extraction speed 5.8 X
Track quality 100.0 %
Test CRC BFE43CD6
Copy CRC BFE43CD6
Accurately ripped (confidence 13) [90B7F060] (AR v2)
Copy OK

Track 7

Filename J:\Sting – The Last Ship\Disc 1\07 The Night The Pugilist Learned How To Dance .wav

Peak level 99.4 %
Extraction speed 6.3 X
Track quality 100.0 %
Test CRC 51976392
Copy CRC 51976392
Accurately ripped (confidence 13) [8090E336] (AR v2)
Copy OK

Track 8

Filename J:\Sting – The Last Ship\Disc 1\08 Ballad of the Great Eastern .wav

Peak level 95.4 %
Extraction speed 6.8 X
Track quality 100.0 %
Test CRC C8BAB5AD
Copy CRC C8BAB5AD
Accurately ripped (confidence 13) [D07BBC7C] (AR v2)
Copy OK

Track 9

Filename J:\Sting – The Last Ship\Disc 1\09 What Have We Got .wav

Peak level 99.4 %
Extraction speed 5.4 X
Track quality 99.9 %
Test CRC AEF85710
Copy CRC AEF85710
Accurately ripped (confidence 13) [226A10A1] (AR v2)
Copy OK

Track 10

Filename J:\Sting – The Last Ship\Disc 1\10 I Love Her But She Loves Someone Else .wav

Peak level 99.4 %
Extraction speed 6.7 X
Track quality 100.0 %
Test CRC 9BC316BB
Copy CRC 9BC316BB
Accurately ripped (confidence 13) [55579A3B] (AR v2)
Copy OK

Track 11

Filename J:\Sting – The Last Ship\Disc 1\11 So To Speak .wav

Peak level 96.6 %
Extraction speed 6.0 X
Track quality 99.9 %
Test CRC A05170E5
Copy CRC A05170E5
Accurately ripped (confidence 13) [CB88DC64] (AR v2)
Copy OK

Track 12

Filename J:\Sting – The Last Ship\Disc 1\12 The Last Ship (reprise) .wav

Peak level 94.0 %
Extraction speed 6.0 X
Track quality 99.9 %
Test CRC 95AC5C57
Copy CRC 95AC5C57
Accurately ripped (confidence 13) [35C64AAB] (AR v2)
Copy OK

All tracks accurately ripped

No errors occurred

End of status report

—- CUETools DB Plugin V2.1.3

[CTDB TOCID: qvlfkEGI2xTYkh_y1t7tU3qVGrs-] found, Submit result: database access error: The remote name could not be resolved: ‘db.cuetools.net’
[cdd29a02] (32/32) Accurately ripped

==== Log checksum 817B03B80FD080094F5F0AC94DCBD7850CCA6AB7DFE1F2B1A91D53D48A7421A0 ====


Cue
Spoiler:
REM GENRE Rock
REM DATE 2013
REM DISCID 970AAA0C
REM COMMENT “ExactAudioCopy v1.0b2″
CATALOG 0602537443208
PERFORMER “Sting”
TITLE “The Last Ship (Super Deluxe Edition) Disc 1″
FILE “01 The Last Ship .wav” WAVE
TRACK 01 AUDIO
TITLE “The Last Ship”
PERFORMER “Sting”
ISRC USUM71307025
FLAGS DCP
INDEX 01 00:00:00
FILE “02 Dead Man’s Boots .wav” WAVE
TRACK 02 AUDIO
TITLE “Dead Man’s Boots”
PERFORMER “Sting”
ISRC USUM71307029
FLAGS DCP
INDEX 01 00:00:00
FILE “03 And Yet .wav” WAVE
TRACK 03 AUDIO
TITLE “And Yet”
PERFORMER “Sting”
ISRC USUM71307027
FLAGS DCP
INDEX 01 00:00:00
FILE “04 August Winds .wav” WAVE
TRACK 04 AUDIO
TITLE “August Winds”
PERFORMER “Sting”
ISRC USUM71309041
FLAGS DCP
INDEX 01 00:00:00
FILE “05 Language of Birds .wav” WAVE
TRACK 05 AUDIO
TITLE “Language of Birds”
PERFORMER “Sting”
ISRC USUM71309042
FLAGS DCP
INDEX 01 00:00:00
FILE “06 Practical Arrangement .wav” WAVE
TRACK 06 AUDIO
TITLE “Practical Arrangement”
PERFORMER “Sting”
ISRC USUM71307028
FLAGS DCP
INDEX 01 00:00:00
FILE “07 The Night The Pugilist Learned How To Dance .wav” WAVE
TRACK 07 AUDIO
TITLE “The Night The Pugilist Learned How To Dance”
PERFORMER “Sting”
ISRC USUM71309043
FLAGS DCP
INDEX 01 00:00:00
FILE “08 Ballad of the Great Eastern .wav” WAVE
TRACK 08 AUDIO
TITLE “Ballad of the Great Eastern”
PERFORMER “Sting”
ISRC USUM71309044
FLAGS DCP
INDEX 01 00:00:00
FILE “09 What Have We Got .wav” WAVE
TRACK 09 AUDIO
TITLE “What Have We Got?”
PERFORMER “Sting”
ISRC USUM71309045
FLAGS DCP
INDEX 01 00:00:00
FILE “10 I Love Her But She Loves Someone Else .wav” WAVE
TRACK 10 AUDIO
TITLE “I Love Her But She Loves Someone Else”
PERFORMER “Sting”
ISRC USUM71309046
FLAGS DCP
INDEX 01 00:00:00
FILE “11 So To Speak .wav” WAVE
TRACK 11 AUDIO
TITLE “So To Speak”
PERFORMER “Sting”
ISRC USUM71309047
FLAGS DCP
INDEX 01 00:00:00
FILE “12 The Last Ship (reprise) .wav” WAVE
TRACK 12 AUDIO
TITLE “The Last Ship (reprise)”
PERFORMER “Sting”
ISRC USUM71307030
FLAGS DCP
INDEX 01 00:00:00

Download