Duke Ellington – In Good Company [2013]

Year Of Release: 2013
Genre: Jazz
Format: Flac, Tracks+.cue
Bitrate: lossless
Total Size: 347 MB

01. Jumpin’ at the Woodside – Count Basie with Duke Ellington and His Orchestra
02. It Don’t Mean a Thing (If It Ain’t Got That Swing) – Louis Armstrong and Duke Ellington
03. I Ain’t Got Nothin’ But the Blues – Ella Fitzgerald with the Duke Ellington Orchestra
04. The Minor Goes Muggin’ – Tommy Dorsey and His Orchestra with Duke Ellington
05. Pitter Panther Patter (Take 2) – Duke Ellington and Jimmie Blanton
06. I Got It Bad (And That Ain’t Good) – Rosemary Clooney with Duke Ellington and Company
07. U.M.M.G. – Duke Ellington featuring Dizzy Gillespie
08. Self Portrait (Of the Bean) – Duke Ellington and Coleman Hawkins
09. Caravan – Duke Ellington (with Max Roach and Charles Mingus)
10. In a Sentimental Mood – Duke Ellington and John Coltrane
11. Solitude – Sathima Bea Benjamin (with Duke Ellington, piano)
12. String Along with Strings – Duke Ellington (with Svend Asmussen and Stéphane Grappelli)
13. Do Nothin’ ‘Till You Hear from Me – Duke Ellington and Ray Brown
14. Part IV (Come Sunday) – Duke Ellington and Mahalia Jackson
15. Drawing Room Blues – Duke Ellington and Billy Strayhorn

Spoiler:
Track 1 from First Time! The Count Meets the Duke, Columbia LP CS 8515, 1962
Track 2 from The Great Reunion, Roulette LP SR 52103, 1963
Track 3 from Ella Fitzgerald Sings the Duke Ellington Songbook, Verve LP MGV 4010-4, 1957
Track 4 recorded 1945, included on CD on Centennial Edition: The Complete RCA Victor Recordings 1927-1973, RCA Victor CD 090266338627, 2000
Track 5 recorded 1939, included on CD on Solos, Duets and Trios, Bluebird CD 2178-2-RB, 1990
Track 6 from Blue Rose, Columbia LP CL 872, 1956
Track 7 from Ellington Jazz Party, Columbia LP CS 8127, 1959
Track 8 from Duke Ellington Meets Coleman Hawkins, Impulse! LP AS-26, 1962
Track 9 from Money Jungle, United Artists LP UAJS 15017, 1963
Track 10 from Duke Ellington and John Coltrane, Impulse! LP A-30, 1963
Track 11 recorded 1963, released on A Morning in Paris, Enja CD, 1996
Track 12 recorded 1963, released on Jazz Violin Sessions, Atlantic LP, 1977
Track 13 from This One’s for Blanton, Pablo LP 2310 721, 1975
Track 14 from Black, Brown and Beige, Columbia LP CS 8015, 1958
Track 15 recorded 1946, included on CD on Centennial Edition: The Complete RCA Victor Recordings 1927-1973, RCA Victor CD 090266338627, 2000

Log

Spoiler:
Exact Audio Copy V1.0 beta 2 from 29. April 2011

EAC extraction logfile from 26. January 2013, 12:39

Various Artists / Duke Ellington – In Good Company

Used drive : SAMSUNG DVD-ROM SD-616E Adapter: 1 ID: 0

Read mode : Secure
Utilize accurate stream : Yes
Defeat audio cache : Yes
Make use of C2 pointers : No

Read offset correction : 12
Overread into Lead-In and Lead-Out : No
Fill up missing offset samples with silence : Yes
Delete leading and trailing silent blocks : No
Null samples used in CRC calculations : Yes
Used interface : Native Win32 interface for Win NT & 2000
Gap handling : Appended to previous track

Used output format : User Defined Encoder
Selected bitrate : 1024 kBit/s
Quality : High
Add ID3 tag : No
Command line compressor : C:\Program Files\Exact Audio Copy\Flac\flac.exe
Additional command line options : -8 -V -T “ARTIST=%artist%” -T “TITLE=%title%” -T “ALBUM=%albumtitle%” -T “DATE=%year%” -T “TRACKNUMBER=%tracknr%” -T “GENRE=%genre%” -T “PERFORMER=%albuminterpret%” -T “COMPOSER=%composer%” %haslyrics%–tag-from-file=LYRICS

TOC of the extracted CD

Track | Start | Length | Start sector | End sector
———————————————————
1 | 0:00.00 | 3:08.30 | 0 | 14129
2 | 3:08.30 | 3:59.20 | 14130 | 32074
3 | 7:07.50 | 4:41.57 | 32075 | 53206
4 | 11:49.32 | 3:02.47 | 53207 | 66903
5 | 14:52.04 | 3:02.00 | 66904 | 80553
6 | 17:54.04 | 3:07.70 | 80554 | 94648
7 | 21:01.74 | 4:29.57 | 94649 | 114880
8 | 25:31.56 | 3:53.00 | 114881 | 132355
9 | 29:24.56 | 4:12.66 | 132356 | 151321
10 | 33:37.47 | 4:15.48 | 151322 | 170494
11 | 37:53.20 | 3:31.60 | 170495 | 186379
12 | 41:25.05 | 6:27.03 | 186380 | 215407
13 | 47:52.08 | 5:33.70 | 215408 | 240452
14 | 53:26.03 | 7:54.35 | 240453 | 276037
15 | 61:20.38 | 3:37.58 | 276038 | 292370

Track 1

Filename E:\Studio Albums\0_EAC – RIPS\Various Artists – 2013 – Duke Ellington – In Good Company [FLAC]\01 – Count Basie with Duke Ellington & His Orchestra – Jumpin’ at the Woodside.wav

Pre-gap length 0:00:02.00

Peak level 100.0 %
Extraction speed 2.0 X
Track quality 100.0 %
Test CRC 253A567C
Copy CRC 253A567C
Track not present in AccurateRip database
Copy OK

Track 2

Filename E:\Studio Albums\0_EAC – RIPS\Various Artists – 2013 – Duke Ellington – In Good Company [FLAC]\02 – Louis Armstrong & Duke Ellington – It Don’t Mean a Thing (If It Anin’t Got That Swing).wav

Peak level 100.0 %
Extraction speed 2.2 X
Track quality 100.0 %
Test CRC 61123122
Copy CRC 61123122
Track not present in AccurateRip database
Copy OK

Track 3

Filename E:\Studio Albums\0_EAC – RIPS\Various Artists – 2013 – Duke Ellington – In Good Company [FLAC]\03 – Ella Fitzgerald with the Duke Ellington Orchestra – I Ain’t Got Nothin’ But the Blues.wav

Pre-gap length 0:00:00.49

Peak level 97.7 %
Extraction speed 2.5 X
Track quality 100.0 %
Test CRC 2FB6F23B
Copy CRC 2FB6F23B
Track not present in AccurateRip database
Copy OK

Track 4

Filename E:\Studio Albums\0_EAC – RIPS\Various Artists – 2013 – Duke Ellington – In Good Company [FLAC]\04 – Tommy Dorsey & His Orchestra with Duke Ellington – The Minor Goes Muggin’.wav

Peak level 100.0 %
Extraction speed 2.5 X
Track quality 100.0 %
Test CRC 2B1F1406
Copy CRC 2B1F1406
Track not present in AccurateRip database
Copy OK

Track 5

Filename E:\Studio Albums\0_EAC – RIPS\Various Artists – 2013 – Duke Ellington – In Good Company [FLAC]\05 – Duke Ellington & Jimmie Blanton – Pitter Panther Patter.wav

Pre-gap length 0:00:01.98

Peak level 97.7 %
Extraction speed 2.6 X
Track quality 100.0 %
Test CRC 77ED11AF
Copy CRC 77ED11AF
Track not present in AccurateRip database
Copy OK

Track 6

Filename E:\Studio Albums\0_EAC – RIPS\Various Artists – 2013 – Duke Ellington – In Good Company [FLAC]\06 – Rosemary Clooney with Duke Ellington & Company – I Got It Bad (And That Ain’t Good).wav

Pre-gap length 0:00:01.98

Peak level 97.7 %
Extraction speed 2.7 X
Track quality 100.0 %
Test CRC FB588372
Copy CRC FB588372
Track not present in AccurateRip database
Copy OK

Track 7

Filename E:\Studio Albums\0_EAC – RIPS\Various Artists – 2013 – Duke Ellington – In Good Company [FLAC]\07 – Duke Ellington ft. Dizzy Gillespie – U.M.M.G..wav

Pre-gap length 0:00:01.50

Peak level 97.7 %
Extraction speed 3.1 X
Track quality 100.0 %
Test CRC 47971D76
Copy CRC 47971D76
Track not present in AccurateRip database
Copy OK

Track 8

Filename E:\Studio Albums\0_EAC – RIPS\Various Artists – 2013 – Duke Ellington – In Good Company [FLAC]\08 – Duke Ellington & Coleman Hawkins – Self Portrait (Of the Bean).wav

Pre-gap length 0:00:01.98

Peak level 97.7 %
Extraction speed 3.2 X
Track quality 100.0 %
Test CRC C1DD10F4
Copy CRC C1DD10F4
Track not present in AccurateRip database
Copy OK

Track 9

Filename E:\Studio Albums\0_EAC – RIPS\Various Artists – 2013 – Duke Ellington – In Good Company [FLAC]\09 – Duke Ellington ft. Charles Mingus & Max Roach – Caravan.wav

Pre-gap length 0:00:01.48

Peak level 78.8 %
Extraction speed 3.3 X
Track quality 100.0 %
Test CRC 73A70258
Copy CRC 73A70258
Track not present in AccurateRip database
Copy OK

Track 10

Filename E:\Studio Albums\0_EAC – RIPS\Various Artists – 2013 – Duke Ellington – In Good Company [FLAC]\10 – Duke Ellington & John Coltrane – In a Sentimental Mood.wav

Peak level 97.7 %
Extraction speed 3.0 X
Track quality 99.9 %
Test CRC 444471D2
Copy CRC 444471D2
Track not present in AccurateRip database
Copy OK

Track 11

Filename E:\Studio Albums\0_EAC – RIPS\Various Artists – 2013 – Duke Ellington – In Good Company [FLAC]\11 – Sathima Bea Benjamin – Solitude.wav

Pre-gap length 0:00:00.49

Peak level 97.7 %
Extraction speed 2.9 X
Track quality 99.9 %
Test CRC 1E631FF9
Copy CRC 1E631FF9
Track not present in AccurateRip database
Copy OK

Track 12

Filename E:\Studio Albums\0_EAC – RIPS\Various Artists – 2013 – Duke Ellington – In Good Company [FLAC]\12 – Duke Ellington ft. Stéphane Grappelli & Svend Asmussen – String Along with Strings.wav

Pre-gap length 0:00:00.50

Peak level 97.7 %
Extraction speed 3.8 X
Track quality 100.0 %
Test CRC A596376C
Copy CRC A596376C
Track not present in AccurateRip database
Copy OK

Track 13

Filename E:\Studio Albums\0_EAC – RIPS\Various Artists – 2013 – Duke Ellington – In Good Company [FLAC]\13 – Duke Ellington & Ray Brown – Do Nothin’ Till You Hear from Me.wav

Pre-gap length 0:00:01.98

Peak level 97.7 %
Extraction speed 3.6 X
Track quality 100.0 %
Test CRC A78B9529
Copy CRC A78B9529
Track not present in AccurateRip database
Copy OK

Track 14

Filename E:\Studio Albums\0_EAC – RIPS\Various Artists – 2013 – Duke Ellington – In Good Company [FLAC]\14 – Duke Ellington & Mahalia Jackson – Part IV (Come Sunday).wav

Pre-gap length 0:00:01.86

Peak level 97.7 %
Extraction speed 3.5 X
Track quality 100.0 %
Test CRC 0EE9CE3C
Copy CRC 0EE9CE3C
Track not present in AccurateRip database
Copy OK

Track 15

Filename E:\Studio Albums\0_EAC – RIPS\Various Artists – 2013 – Duke Ellington – In Good Company [FLAC]\15 – Duke Ellington & Billy Strayhorn – Drawing Room Blues.wav

Pre-gap length 0:00:00.98

Peak level 97.7 %
Extraction speed 3.0 X
Track quality 99.9 %
Test CRC 387B99C7
Copy CRC 387B99C7
Track not present in AccurateRip database
Copy OK

None of the tracks are present in the AccurateRip database

No errors occurred

End of status report

==== Log checksum 9196580F5537C9FEEA9127F8A3F65D105E5D7D6F926B7C79266D4F29DE332C2A ====


Cue
Spoiler:
REM GENRE Jazz
REM DATE 2013
REM DISCID D90F3A0F
REM COMMENT “ExactAudioCopy v1.0b2″
PERFORMER “Various Artists”
TITLE “Duke Ellington – In Good Company”
FILE “Various Artists – 2013 – Duke Ellington – In Good Company [FLAC]\01 – Count Basie with Duke Ellington & His Orchestra – Jumpin’ at the Woodside.wav” WAVE
TRACK 01 AUDIO
TITLE “Jumpin’ at the Woodside”
PERFORMER “Count Basie with Duke Ellington & His Orchestra”
ISRC USSM16101260
INDEX 01 00:00:00
FILE “Various Artists – 2013 – Duke Ellington – In Good Company [FLAC]\02 – Louis Armstrong & Duke Ellington – It Don’t Mean a Thing (If It Anin’t Got That Swing).wav” WAVE
TRACK 02 AUDIO
TITLE “It Don’t Mean a Thing (If It Anin’t Got That Swing)”
PERFORMER “Louis Armstrong & Duke Ellington”
ISRC GBAYE9000237
INDEX 01 00:00:00
TRACK 03 AUDIO
TITLE “I Ain’t Got Nothin’ But the Blues”
PERFORMER “Ella Fitzgerald with the Duke Ellington Orchestra”
ISRC USPR35700121
INDEX 00 03:58:58
FILE “Various Artists – 2013 – Duke Ellington – In Good Company [FLAC]\03 – Ella Fitzgerald with the Duke Ellington Orchestra – I Ain’t Got Nothin’ But the Blues.wav” WAVE
INDEX 01 00:00:00
FILE “Various Artists – 2013 – Duke Ellington – In Good Company [FLAC]\04 – Tommy Dorsey & His Orchestra with Duke Ellington – The Minor Goes Muggin’.wav” WAVE
TRACK 04 AUDIO
TITLE “The Minor Goes Muggin’”
PERFORMER “Tommy Dorsey & His Orchestra with Duke Ellington”
ISRC USPR35700121
INDEX 01 00:00:00
TRACK 05 AUDIO
TITLE “Pitter Panther Patter”
PERFORMER “Duke Ellington & Jimmie Blanton”
ISRC USBB19001090
INDEX 00 03:00:48
FILE “Various Artists – 2013 – Duke Ellington – In Good Company [FLAC]\05 – Duke Ellington & Jimmie Blanton – Pitter Panther Patter.wav” WAVE
INDEX 01 00:00:00
TRACK 06 AUDIO
TITLE “I Got It Bad (And That Ain’t Good)”
PERFORMER “Rosemary Clooney with Duke Ellington & Company”
ISRC USSM15600398
INDEX 00 03:00:01
FILE “Various Artists – 2013 – Duke Ellington – In Good Company [FLAC]\06 – Rosemary Clooney with Duke Ellington & Company – I Got It Bad (And That Ain’t Good).wav” WAVE
INDEX 01 00:00:00
TRACK 07 AUDIO
TITLE “U.M.M.G.”
PERFORMER “Duke Ellington ft. Dizzy Gillespie”
ISRC USSM10016775
INDEX 00 03:06:32
FILE “Various Artists – 2013 – Duke Ellington – In Good Company [FLAC]\07 – Duke Ellington ft. Dizzy Gillespie – U.M.M.G..wav” WAVE
INDEX 01 00:00:00
TRACK 08 AUDIO
TITLE “Self Portrait (Of the Bean)”
PERFORMER “Duke Ellington & Coleman Hawkins”
ISRC USMC16355036
INDEX 00 04:27:58
FILE “Various Artists – 2013 – Duke Ellington – In Good Company [FLAC]\08 – Duke Ellington & Coleman Hawkins – Self Portrait (Of the Bean).wav” WAVE
INDEX 01 00:00:00
TRACK 09 AUDIO
TITLE “Caravan”
PERFORMER “Duke Ellington ft. Charles Mingus & Max Roach”
ISRC USBN20200158
INDEX 00 03:51:39
FILE “Various Artists – 2013 – Duke Ellington – In Good Company [FLAC]\09 – Duke Ellington ft. Charles Mingus & Max Roach – Caravan.wav” WAVE
INDEX 01 00:00:00
FILE “Various Artists – 2013 – Duke Ellington – In Good Company [FLAC]\10 – Duke Ellington & John Coltrane – In a Sentimental Mood.wav” WAVE
TRACK 10 AUDIO
TITLE “In a Sentimental Mood”
PERFORMER “Duke Ellington & John Coltrane”
ISRC USMC16351954
INDEX 01 00:00:00
TRACK 11 AUDIO
TITLE “Solitude”
PERFORMER “Sathima Bea Benjamin”
ISRC DEA599700906
INDEX 00 04:15:11
FILE “Various Artists – 2013 – Duke Ellington – In Good Company [FLAC]\11 – Sathima Bea Benjamin – Solitude.wav” WAVE
INDEX 01 00:00:00
TRACK 12 AUDIO
TITLE “String Along with Strings”
PERFORMER “Duke Ellington ft. Stйphane Grappelli & Svend Asmussen”
ISRC USAT20400975
INDEX 00 03:31:22
FILE “Various Artists – 2013 – Duke Ellington – In Good Company [FLAC]\12 – Duke Ellington ft. Stйphane Grappelli & Svend Asmussen – String Along with Strings.wav” WAVE
INDEX 01 00:00:00
TRACK 13 AUDIO
TITLE “Do Nothin’ Till You Hear from Me”
PERFORMER “Duke Ellington & Ray Brown”
ISRC USFI87500135
INDEX 00 06:25:04
FILE “Various Artists – 2013 – Duke Ellington – In Good Company [FLAC]\13 – Duke Ellington & Ray Brown – Do Nothin’ Till You Hear from Me.wav” WAVE
INDEX 01 00:00:00
TRACK 14 AUDIO
TITLE “Part IV (Come Sunday)”
PERFORMER “Duke Ellington & Mahalia Jackson”
ISRC USSM10401389
INDEX 00 05:32:05
FILE “Various Artists – 2013 – Duke Ellington – In Good Company [FLAC]\14 – Duke Ellington & Mahalia Jackson – Part IV (Come Sunday).wav” WAVE
INDEX 01 00:00:00
TRACK 15 AUDIO
TITLE “Drawing Room Blues”
PERFORMER “Duke Ellington & Billy Strayhorn”
ISRC USBC19605222
INDEX 00 07:53:36
FILE “Various Artists – 2013 – Duke Ellington – In Good Company [FLAC]\15 – Duke Ellington & Billy Strayhorn – Drawing Room Blues.wav” WAVE
INDEX 01 00:00:00

Download

Leave a Reply

Your email address will not be published.

Question   Razz  Sad   Evil  Exclaim  Smile  Redface  Biggrin  Surprised  Eek   Confused   Cool  LOL   Mad   Twisted  Rolleyes   Wink  Idea  Arrow  Neutral  Cry   Mr. Green

You may use these HTML tags and attributes: <a href="" title=""> <abbr title=""> <acronym title=""> <b> <blockquote cite=""> <cite> <code> <del datetime=""> <em> <i> <q cite=""> <strike> <strong>

Categories

  • Box set (174)
  • Discography (1076)
  • iTunes (223)
  • Soundtrack (169)
  • Vinyl & HD Music (247)
  • Singles & EP’s (201)
  • Various Artists (1724)
  • Hörbücher und Hörspiele (12)
  • Apple Lossless (7)
  • Everything Else (107)

Most Popular Today

Moby - The Last Day (Remixes) [2014]
Maude - #HoldUp [2014]
Banks - Goddess [2014]
Bee Gees - The Warner Bros. Years 1987-1991(2014) [5CD Box Set]
Nana Mouskouri - Happy Birthday Tour [2014]
Trentemøller - Lost Reworks [2014]
Milky Chance - Sadnecessary (2013) [Deluxe Edition]
Pharrell Williams - Discography [2006 - 2014]
Ed Sheeran - Don't (2014) [EP]
Umek - Rhythmia [2014]

Recent Comments